+ fiducneter.com »  :::: Bollywood Zone » Regional Movies » Regional Movies in Hindi
|- Guru (2018 - South Hindi Dubbed) - HDTVRip[Mp4 - AAC3(5.1Ch)] - 450 MB


Redmi 6A

Guru (2018 - South Hindi Dubbed) - HDTVRip[Mp4 - AAC3(5.1Ch)] - 450 MB

0 Members and 1 Guest are viewing this topic.

October 20, 2018, 03:55:04 PM
  • Semi Newbie
  • **
  • Topic Author
  • Thank You: 0
  • Reputation: -1
  • Activity:
    5.4%
  • Country: bd
  • Posts: 27
  • Topics: 27
  • Join Date: Oct 2018
  • ShareSpark Member
      Guru (2018 - South Hindi Dubbed) -
HDTVRip[Mp4 - AAC3(5.1Ch)] - 450 MB   
 






Code: [Select]
General
Format                                   : MPEG-4
Format profile                           : Base Media
Codec ID                                 : isom (isom)
File size                                : 451 MiB
Duration                                 : 1 h 48 min

Video
ID                                       : 1
Format                                   : AVC
Format/Info                              : Advanced Video Codec
Format profile                           : [email protected]
Format settings                          : CABAC / 4 Ref Frames
Format settings, CABAC                   : Yes
Format settings, RefFrames               : 4 frames
Codec ID                                 : avc1
Codec ID/Info                            : Advanced Video Coding
Duration                                 : 1 h 48 min
Bit rate                                 : 496 kb/s
Maximum bit rate                         : 2 035 kb/s
Width                                    : 640 pixels
Height                                   : 272 pixels
Display aspect ratio                     : 2.35:1
Frame rate mode                          : Constant
Frame rate                               : 25.000 FPS
Color space                              : YUV
Chroma subsampling                       : 4:2:0
Bit depth                                : 8 bits
Scan type                                : Progressive
Bits/(Pixel*Frame)                       : 0.114
Stream size                              : 386 MiB (86%)

Audio
ID                                       : 2
Format                                   : AAC LC SBR
Commercial name                          : HE-AAC
Format settings                          : Explicit
Codec ID                                 : mp4a-40-2
Duration                                 : 1 h 48 min
Bit rate mode                            : Variable
Bit rate                                 : 79.8 kb/s
Maximum bit rate                         : 87.2 kb/s
Channel(s)                               : 6 channels
Channel layout                           : C L R Ls Rs LFE
Sampling rate                            : 48.0 kHz
Stream size                              : 62.1 MiB (14%)


  Thumbnail   





OR

OR


Share this topic on FacebookShare this topic on GoogleShare this topic on MySpaceShare this topic on TwitterShare this topic on Yahoo




Tags:
 

Related Topics

  Subject / Started by Replies Last post
0 Replies
133 Views
Last post October 08, 2018, 02:25:58 PM
by BUNGILI
0 Replies
141 Views
Last post October 08, 2018, 03:04:21 PM
by BUNGILI
0 Replies
213 Views
Last post October 12, 2018, 05:44:32 PM
by BUNGILI
0 Replies
222 Views
Last post October 13, 2018, 11:31:26 AM
by BUNGILI
0 Replies
44 Views
Last post October 20, 2018, 03:22:44 PM
by BUNGILI




Back to top
Sitemap